+ ShareSpark.net »  :::: Bollywood Zone » Bollywood Movies (Original Rips) » HEVC / H.265 Releases
|- Raazi (2018) (1080p BluRay x265 HEVC 10bit AAC 5.1 Hindi Natty) [QxR]


HDFC 10% Off

Raazi (2018) (1080p BluRay x265 HEVC 10bit AAC 5.1 Hindi Natty) [QxR]

0 Members and 1 Guest are viewing this topic.

January 11, 2019, 06:12:00 PM
  • Conqueror
  • Legend Member
  • *****
  • Topic Author
  • Thank You: 5199
  • Reputation: 1085
  • Activity:
    100%
  • Country: np
  • Posts: 1821
  • Topics: 1553
  • Join Date: Jul 2016
  • Love Forever !!
Raazi (2018) (1080p BluRay x265 HEVC 10bit AAC 5.1 Hindi Natty) [QxR]




 :info:
Source : Raazi.2018.1080p.BluRay.REMUX.AVC.DTS-HDMA.5.1.Esub.-.Hon3yHD
Format                                   : Matroska
Format version                           : Version 4 / Version 2
File size                                : 2.34 GiB
Duration                                 : 2 h 18 min
Overall bit rate                         : 2 418 kb/s


Video
ID                                       : 1
Format                                   : HEVC
Format/Info                              : High Efficiency Video Coding
Format profile                           : Main [email protected]@Main
Codec ID                                 : V_MPEGH/ISO/HEVC
Duration                                 : 2 h 18 min
Bit rate                                 : 1 962 kb/s
Width                                    : 1 920 pixels
Height                                   : 804 pixels
Display aspect ratio                     : 2.40:1
Frame rate mode                          : Constant
Frame rate                               : 24.000 FPS
Color space                              : YUV
Chroma subsampling                       : 4:2:0
Bit depth                                : 10 bits
Bits/(Pixel*Frame)                       : 0.053
Stream size                              : 1.90 GiB (81%)


Audio
ID                                       : 2
Format                                   : AAC
Format/Info                              : Advanced Audio Codec
Format profile                           : LC
Codec ID                                 : A_AAC
Duration                                 : 2 h 18 min
Bit rate                                 : 439 kb/s
Channel(s)                               : 6 channels
Channel positions                        : Front: L C R, Side: L R, LFE
Sampling rate                            : 48.0 kHz
Frame rate                               : 46.875 FPS (1024 spf)
Compression mode                         : Lossy
Delay relative to video                  : 20 ms
Stream size                              : 436 MiB (18%)
Language                                 : Hindi
Default                                  : No
Forced                                   : No


Subtitle
ID                                       : 3
Format                                   : PGS
Muxing mode                              : zlib
Codec ID                                 : S_HDMV/PGS
Codec ID/Info                            : Picture based subtitle format used on BDs/HD-DVDs
Duration                                 : 2 h 8 min
Bit rate                                 : 23.5 kb/s
Count of elements                        : 2542
Stream size                              : 21.7 MiB (1%)
Language                                 : English
Default                                  : No
Forced                                   : No


Menu
00:00:00.000                             : en:Chapter 01
00:16:54.541                             : en:Chapter 02
00:18:03.000                             : en:Chapter 03
00:29:16.416                             : en:Chapter 04
00:34:07.000                             : en:Chapter 05
00:39:37.750                             : en:Chapter 06
00:57:43.000                             : en:Chapter 07
01:03:21.000                             : en:Chapter 08
01:13:00.458                             : en:Chapter 09
01:35:42.083                             : en:Chapter 10
01:51:19.166                             : en:Chapter 11
02:11:24.000                             : en:Chapter 12



 :ss:





 :download:

Share this topic on FacebookShare this topic on GoogleShare this topic on MySpaceShare this topic on TwitterShare this topic on Yahoo




Tags:
 

Related Topics





Back to top