+ ShareSpark.net »  :::: Dubbed Zone (Dubbed English in Hindi) » English Movies Dubbed in Hindi » Animation Movies
|- SuperMonsters And The Wish Star 2018 x264 720p Msub M Audio [Shahzaib Shah]


HDFC 10% Off

SuperMonsters And The Wish Star 2018 x264 720p Msub M Audio [Shahzaib Shah]

0 Members and 1 Guest are viewing this topic.

January 09, 2019, 03:52:33 PM
  • ***************
  • Conqueror
  • Legend Member
  • *****
  • Topic Author
  • Thank You: 1968
  • Reputation: 566
  • Activity:
    100%
  • Country: pk
  • Posts: 2194
  • Topics: 1472
  • Join Date: Mar 2015
  • =$ Success Never Ends $=
SuperMonsters And The Wish Star 2018 x264 720p Msub M Audio [Shahzaib Shah]







Format                         : Matroska
Format version                 : Version 4 / Version 2
File size                      : 470 MiB
Duration                       : 27 min 45 s
Overall bit rate               : 2 369 kb/s

Video
Format                         : AVC
Format/Info                    : Advanced Video Codec
Codec ID                       : V_MPEG4/ISO/AVC
Duration                       : 27 min 44 s
Bit rate                       : 699 kb/s
Width                          : 1 280 pixels
Height                         : 720 pixels
Display aspect ratio           : 16:9
Frame rate mode                : Constant
Frame rate                     : 23.976 (24000/1001) FPS
Color space                    : YUV
Chroma subsampling             : 4:2:0
Bit depth                      : 8 bits
Scan type                      : Progressive
Bits/(Pixel*Frame)             : 0.032
Stream size                    : 139 MiB (30%)
Title                          : GOPISAHI
Writing library                : x264 core 155 r2901 7d0ff22

Audio #1
ID                             : 2
Format                         : AAC
Format/Info                    : Advanced Audio Codec
Format profile                 : LC
Codec ID                       : A_AAC-2
Duration                       : 27 min 45 s
Bit rate                       : 91.8 kb/s
Channel(s)                     : 2 channels
Channel positions              : Front: L R
Sampling rate                  : 48.0 kHz
Frame rate                     : 46.875 FPS (1024 SPF)
Compression mode               : Lossy
Delay relative to video        : -21 ms
Stream size                    : 18.2 MiB (4%)
Title                          : GOPISAHI
Language                       : Hindi
Default                        : Yes
Forced                         : No

Audio #2
ID                             : 3
Format                         : AAC
Format/Info                    : Advanced Audio Codec
Format profile                 : LC
Codec ID                       : A_AAC-2
Duration                       : 27 min 45 s
Bit rate                       : 91.8 kb/s
Channel(s)                     : 2 channels
Channel positions              : Front: L R
Sampling rate                  : 48.0 kHz
Frame rate                     : 46.875 FPS (1024 SPF)
Compression mode               : Lossy
Delay relative to video        : -21 ms
Stream size                    : 18.2 MiB (4%)
Title                          : GOPISAHI
Language                       : English
Default                        : No
Forced                         : No

Audio #3
ID                             : 4
Format                         : AAC
Format/Info                    : Advanced Audio Codec
Format profile                 : LC
Codec ID                       : A_AAC-2
Duration                       : 27 min 45 s
Bit rate                       : 91.8 kb/s
Channel(s)                     : 2 channels
Channel positions              : Front: L R
Sampling rate                  : 48.0 kHz
Frame rate                     : 46.875 FPS (1024 SPF)
Compression mode               : Lossy
Delay relative to video        : -21 ms
Stream size                    : 18.2 MiB (4%)
Title                          : GOPISAHI
Language                       : French
Default                        : No
Forced                         : No

Audio #4
ID                             : 5
Format                         : AAC
Format/Info                    : Advanced Audio Codec
Format profile                 : LC
Codec ID                       : A_AAC-2
Duration                       : 27 min 45 s
Bit rate                       : 91.8 kb/s
Channel(s)                     : 2 channels
Channel positions              : Front: L R
Sampling rate                  : 48.0 kHz
Frame rate                     : 46.875 FPS (1024 SPF)
Compression mode               : Lossy
Delay relative to video        : -21 ms
Stream size                    : 18.2 MiB (4%)
Title                          : GOPISAHI
Language                       : German
Default                        : No
Forced                         : No

Audio #5
ID                             : 6
Format                         : AAC
Format/Info                    : Advanced Audio Codec
Format profile                 : LC
Codec ID                       : A_AAC-2
Duration                       : 27 min 45 s
Bit rate                       : 91.8 kb/s
Channel(s)                     : 2 channels
Channel positions              : Front: L R
Sampling rate                  : 48.0 kHz
Frame rate                     : 46.875 FPS (1024 SPF)
Compression mode               : Lossy
Delay relative to video        : -21 ms
Stream size                    : 18.2 MiB (4%)
Title                          : GOPISAHI
Language                       : Italian
Default                        : No
Forced                         : No

Audio #6
ID                             : 7
Format                         : AAC
Format/Info                    : Advanced Audio Codec
Format profile                 : LC
Codec ID                       : A_AAC-2
Duration                       : 27 min 45 s
Bit rate                       : 91.8 kb/s
Channel(s)                     : 2 channels
Channel positions              : Front: L R
Sampling rate                  : 48.0 kHz
Frame rate                     : 46.875 FPS (1024 SPF)
Compression mode               : Lossy
Delay relative to video        : -21 ms
Stream size                    : 18.2 MiB (4%)
Title                          : GOPISAHI
Default                        : No
Forced                         : No

Audio #7
ID                             : 8
Format                         : AAC
Format/Info                    : Advanced Audio Codec
Format profile                 : LC
Codec ID                       : A_AAC-2
Duration                       : 27 min 45 s
Bit rate                       : 91.8 kb/s
Channel(s)                     : 2 channels
Channel positions              : Front: L R
Sampling rate                  : 48.0 kHz
Frame rate                     : 46.875 FPS (1024 SPF)
Compression mode               : Lossy
Delay relative to video        : -21 ms
Stream size                    : 18.2 MiB (4%)
Title                          : GOPISAHI
Default                        : No
Forced                         : No

Audio #8
ID                             : 9
Format                         : AAC
Format/Info                    : Advanced Audio Codec
Format profile                 : LC
Codec ID                       : A_AAC-2
Duration                       : 27 min 45 s
Bit rate                       : 91.8 kb/s
Channel(s)                     : 2 channels
Channel positions              : Front: L R
Sampling rate                  : 48.0 kHz
Frame rate                     : 46.875 FPS (1024 SPF)
Compression mode               : Lossy
Delay relative to video        : -21 ms
Stream size                    : 18.2 MiB (4%)
Title                          : GOPISAHI
Default                        : No
Forced                         : No

Audio #9
ID                             : 10
Format                         : AAC
Format/Info                    : Advanced Audio Codec
Format profile                 : LC
Codec ID                       : A_AAC-2
Duration                       : 27 min 45 s
Bit rate                       : 91.8 kb/s
Channel(s)                     : 2 channels
Channel positions              : Front: L R
Sampling rate                  : 48.0 kHz
Frame rate                     : 46.875 FPS (1024 SPF)
Compression mode               : Lossy
Delay relative to video        : -21 ms
Stream size                    : 18.2 MiB (4%)
Title                          : GOPISAHI
Language                       : Hebrew
Default                        : No
Forced                         : No

Audio #10
ID                             : 11
Format                         : AAC
Format/Info                    : Advanced Audio Codec
Format profile                 : LC
Codec ID                       : A_AAC-2
Duration                       : 27 min 45 s
Bit rate                       : 91.8 kb/s
Channel(s)                     : 2 channels
Channel positions              : Front: L R
Sampling rate                  : 48.0 kHz
Frame rate                     : 46.875 FPS (1024 SPF)
Compression mode               : Lossy
Delay relative to video        : -21 ms
Stream size                    : 18.2 MiB (4%)
Language                       : Norwegian
Default                        : No
Forced                         : No

Audio #11
ID                             : 12
Format                         : AAC
Format/Info                    : Advanced Audio Codec
Format profile                 : LC
Codec ID                       : A_AAC-2
Duration                       : 27 min 45 s
Bit rate                       : 91.8 kb/s
Channel(s)                     : 2 channels
Channel positions              : Front: L R
Sampling rate                  : 48.0 kHz
Frame rate                     : 46.875 FPS (1024 SPF)
Compression mode               : Lossy
Delay relative to video        : -21 ms
Stream size                    : 18.2 MiB (4%)
Title                          : GOPISAHI
Language                       : Japanese
Default                        : No
Forced                         : No

Audio #12
ID                             : 13
Format                         : AAC
Format/Info                    : Advanced Audio Codec
Format profile                 : LC
Codec ID                       : A_AAC-2
Duration                       : 27 min 45 s
Bit rate                       : 91.8 kb/s
Channel(s)                     : 2 channels
Channel positions              : Front: L R
Sampling rate                  : 48.0 kHz
Frame rate                     : 46.875 FPS (1024 SPF)
Compression mode               : Lossy
Delay relative to video        : -21 ms
Stream size                    : 18.2 MiB (4%)
Title                          : GOPISAHI
Language                       : Polish
Default                        : No
Forced                         : No

Audio #13
ID                             : 14
Format                         : AAC
Format/Info                    : Advanced Audio Codec
Format profile                 : LC
Codec ID                       : A_AAC-2
Duration                       : 27 min 45 s
Bit rate                       : 91.8 kb/s
Channel(s)                     : 2 channels
Channel positions              : Front: L R
Sampling rate                  : 48.0 kHz
Frame rate                     : 46.875 FPS (1024 SPF)
Compression mode               : Lossy
Delay relative to video        : -21 ms
Stream size                    : 18.2 MiB (4%)
Title                          : GOPISAHI
Default                        : No
Forced                         : No

Audio #14
ID                             : 15
Format                         : AAC
Format/Info                    : Advanced Audio Codec
Format profile                 : LC
Codec ID                       : A_AAC-2
Duration                       : 27 min 45 s
Bit rate                       : 91.8 kb/s
Channel(s)                     : 2 channels
Channel positions              : Front: L R
Sampling rate                  : 48.0 kHz
Frame rate                     : 46.875 FPS (1024 SPF)
Compression mode               : Lossy
Delay relative to video        : -21 ms
Stream size                    : 18.2 MiB (4%)
Title                          : GOPISAHI
Language                       : Turkish
Default                        : No
Forced                         : No

Audio #15
ID                             : 16
Format                         : AAC
Format/Info                    : Advanced Audio Codec
Format profile                 : LC
Codec ID                       : A_AAC-2
Duration                       : 27 min 45 s
Bit rate                       : 91.8 kb/s
Channel(s)                     : 2 channels
Channel positions              : Front: L R
Sampling rate                  : 48.0 kHz
Frame rate                     : 46.875 FPS (1024 SPF)
Compression mode               : Lossy
Delay relative to video        : -21 ms
Stream size                    : 18.2 MiB (4%)
Title                          : GOPISAHI
Default                        : No
Forced                         : No

Audio #16
ID                             : 17
Format                         : AAC
Format/Info                    : Advanced Audio Codec
Format profile                 : LC
Codec ID                       : A_AAC-2
Duration                       : 27 min 45 s
Bit rate                       : 91.8 kb/s
Channel(s)                     : 2 channels
Channel positions              : Front: L R
Sampling rate                  : 48.0 kHz
Frame rate                     : 46.875 FPS (1024 SPF)
Compression mode               : Lossy
Delay relative to video        : -21 ms
Stream size                    : 18.2 MiB (4%)
Title                          : GOPISAHI
Default                        : No
Forced                         : No

Audio #17
ID                             : 18
Format                         : AAC
Format/Info                    : Advanced Audio Codec
Format profile                 : LC
Codec ID                       : A_AAC-2
Duration                       : 27 min 45 s
Bit rate                       : 91.8 kb/s
Channel(s)                     : 2 channels
Channel positions              : Front: L R
Sampling rate                  : 48.0 kHz
Frame rate                     : 46.875 FPS (1024 SPF)
Compression mode               : Lossy
Delay relative to video        : -21 ms
Stream size                    : 18.2 MiB (4%)
Title                          : GOPISAHI
Default                        : No
Forced                         : No

Audio #18
ID                             : 19
Format                         : AAC
Duration                       : 27 min 45 s
Bit rate                       : 91.8 kb/s
Channel(s)                     : 2 channels
Channel positions              : Front: L R
Sampling rate                  : 48.0 kHz
Frame rate                     : 46.875 FPS (1024 SPF)
Compression mode               : Lossy
Delay relative to video        : -21 ms
Stream size                    : 18.2 MiB (4%)
Title                          : GOPISAHI
Language                       : Spanish

Text
Language                       : English




 :ss:






 :download:











Share this topic on FacebookShare this topic on GoogleShare this topic on MySpaceShare this topic on TwitterShare this topic on Yahoo




Tags:
 

Related Topics

  Subject / Started by Replies Last post
0 Replies
334 Views
Last post November 22, 2018, 03:48:42 PM
by shahzaibjaan
0 Replies
333 Views
Last post November 22, 2018, 04:02:43 PM
by shahzaibjaan
0 Replies
216 Views
Last post December 12, 2018, 12:12:25 PM
by shahzaibjaan
1 Replies
273 Views
Last post December 22, 2018, 04:28:22 PM
by shahidimran
0 Replies
213 Views
Last post January 09, 2019, 01:43:40 PM
by shahzaibjaan




Back to top